• HomeBoards
  • RulesRules
  • HelpHelp
  • WikiWiki
  • Donate

Author Topic: I NEED TEMPER or another working PcEngine emulator  (Read 67690 times)

Prophet

  • Posts: 200
Re: I NEED TEMPER or another working PcEngine emulator
« Reply #60 on: April 08, 2014, 06:15:01 pm »
No temper simply don't handle v-sync (yet, I hope^^), it's my major concern with it :(
Saddly there's not much love for the Pc engine.

As I feared. *sigh*

Well, maybe after a new firmware is released there will be new interest by emu devs with Zeros.

And PCE and CD are an amazing system. Some of the best games ever made. Every emulation system needs a great PCE emulator. :-)

eltehero

  • Posts: 338
Re: I NEED TEMPER or another working PcEngine emulator
« Reply #61 on: April 08, 2014, 08:47:04 pm »
Temper was one of the best emu's for GP2X and Wiz by exophase, did those versions have v-sync?
« Last Edit: April 08, 2014, 08:48:40 pm by vampire8bit »

surfi80

  • Posts: 252
Re: I NEED TEMPER or another working PcEngine emulator
« Reply #62 on: April 09, 2014, 06:27:20 am »
I just compile the Temper an OPK, it works well, I'll keep testing it  ;D
play with the best? die like the rest!

http://www.elotrolado.net/wiki/PS_VITA_Usuarios_EoL

ruffnutts

  • Posts: 2648
Re: I NEED TEMPER or another working PcEngine emulator
« Reply #63 on: April 09, 2014, 08:12:24 am »
I just compile the Temper an OPK, it works well, I'll keep testing it  ;D

But does save states work for this?

surfi80

  • Posts: 252
Re: I NEED TEMPER or another working PcEngine emulator
« Reply #64 on: April 09, 2014, 08:24:23 am »
What? I do not understand what you mean  ??? ???
play with the best? die like the rest!

http://www.elotrolado.net/wiki/PS_VITA_Usuarios_EoL

Gab1975

  • Posts: 1165
Re: I NEED TEMPER or another working PcEngine emulator
« Reply #65 on: April 09, 2014, 09:35:49 am »
What? I do not understand what you mean  ??? ???

If you package a software without the appropriate optimizations, almost certainly it will be unable to save the configuration and the save-states...
« Last Edit: April 09, 2014, 09:38:50 am by Gab1975 »

surfi80

  • Posts: 252
Re: I NEED TEMPER or another working PcEngine emulator
« Reply #66 on: April 09, 2014, 10:20:50 am »
What? I do not understand what you mean  ??? ???

If you package a software without the appropriate optimizations, almost certainly it will be unable to save the configuration and the save-states...
I'm using the one package creator and do not know how to optimize it  ???
no tutorial and not seen those options in the OnePackageCreator

PS: I would see the Temper officially Opk
« Last Edit: April 09, 2014, 10:25:58 am by surfi80 »
play with the best? die like the rest!

http://www.elotrolado.net/wiki/PS_VITA_Usuarios_EoL

Gab1975

  • Posts: 1165
Re: I NEED TEMPER or another working PcEngine emulator
« Reply #67 on: April 09, 2014, 02:23:48 pm »
I'm using the one package creator and do not know how to optimize it  ???
no tutorial and not seen those options in the OnePackageCreator

With "Open Package Creator" you can't optimize the software code, a partial recompilation is needed (using the software source code and the GCW Zero Toolchain)...

surfi80

  • Posts: 252
Re: I NEED TEMPER or another working PcEngine emulator
« Reply #68 on: April 09, 2014, 02:33:08 pm »
WTF!!  :-\.........that's another story... :-X D'oh!
play with the best? die like the rest!

http://www.elotrolado.net/wiki/PS_VITA_Usuarios_EoL

ruffnutts

  • Posts: 2648
Re: I NEED TEMPER or another working PcEngine emulator
« Reply #69 on: April 10, 2014, 01:47:54 pm »
I have had a .opk of temper for ages but it does not save so kind of pointless playing if you can't save :(

howie_k

  • Posts: 157
Re: I NEED TEMPER or another working PcEngine emulator
« Reply #70 on: April 10, 2014, 06:29:35 pm »
In one of the threads I seem to remember qbertaddict posting a link to a newer version of Temper but it was a dge version (not sure if this saves)

surfi80

  • Posts: 252
play with the best? die like the rest!

http://www.elotrolado.net/wiki/PS_VITA_Usuarios_EoL

Prophet

  • Posts: 200
Re: I NEED TEMPER or another working PcEngine emulator
« Reply #72 on: April 12, 2014, 04:34:26 am »
Can someone help me get CD games to work? I've been using PCE emus for many years, but so far I can't get a CD game to work with this emu. My regular PCE roms work fine.

For example, I have put Akumajou Dracula X in a folder with cue and bin/wav. Here is the cue:

FILE "01 Akumajou Dracula X - Chi no Rondo (J).wav" WAVE
  TRACK 01 AUDIO
    INDEX 01 00:00:00
FILE "02 Akumajou Dracula X - Chi no Rondo (J).iso" BINARY
  TRACK 02 MODE1/2048
    PREGAP 00:03:00
    INDEX 01 00:00:00
FILE "03 Akumajou Dracula X - Chi no Rondo (J).wav" WAVE
  TRACK 03 AUDIO
    PREGAP 00:02:00
    INDEX 01 00:00:00
FILE "04 Akumajou Dracula X - Chi no Rondo (J).wav" WAVE
  TRACK 04 AUDIO
    INDEX 01 00:00:00
FILE "05 Akumajou Dracula X - Chi no Rondo (J).wav" WAVE
  TRACK 05 AUDIO
    INDEX 01 00:00:00
FILE "06 Akumajou Dracula X - Chi no Rondo (J).wav" WAVE
  TRACK 06 AUDIO
    INDEX 01 00:00:00
FILE "07 Akumajou Dracula X - Chi no Rondo (J).wav" WAVE
  TRACK 07 AUDIO
    INDEX 01 00:00:00
FILE "08 Akumajou Dracula X - Chi no Rondo (J).wav" WAVE
  TRACK 08 AUDIO
    INDEX 01 00:00:00
FILE "09 Akumajou Dracula X - Chi no Rondo (J).wav" WAVE
  TRACK 09 AUDIO
    INDEX 01 00:00:00
FILE "10 Akumajou Dracula X - Chi no Rondo (J).wav" WAVE
  TRACK 10 AUDIO
    INDEX 01 00:00:00
FILE "11 Akumajou Dracula X - Chi no Rondo (J).wav" WAVE
  TRACK 11 AUDIO
    INDEX 01 00:00:00
FILE "12 Akumajou Dracula X - Chi no Rondo (J).wav" WAVE
  TRACK 12 AUDIO
    INDEX 01 00:00:00
FILE "13 Akumajou Dracula X - Chi no Rondo (J).wav" WAVE
  TRACK 13 AUDIO
    INDEX 01 00:00:00
FILE "14 Akumajou Dracula X - Chi no Rondo (J).wav" WAVE
  TRACK 14 AUDIO
    INDEX 01 00:00:00
FILE "15 Akumajou Dracula X - Chi no Rondo (J).wav" WAVE
  TRACK 15 AUDIO
    INDEX 01 00:00:00
FILE "16 Akumajou Dracula X - Chi no Rondo (J).wav" WAVE
  TRACK 16 AUDIO
    INDEX 01 00:00:00
FILE "17 Akumajou Dracula X - Chi no Rondo (J).wav" WAVE
  TRACK 17 AUDIO
    INDEX 01 00:00:00
FILE "18 Akumajou Dracula X - Chi no Rondo (J).wav" WAVE
  TRACK 18 AUDIO
    INDEX 01 00:00:00
FILE "19 Akumajou Dracula X - Chi no Rondo (J).wav" WAVE
  TRACK 19 AUDIO
    INDEX 01 00:00:00
FILE "20 Akumajou Dracula X - Chi no Rondo (J).wav" WAVE
  TRACK 20 AUDIO
    INDEX 01 00:00:00
FILE "21 Akumajou Dracula X - Chi no Rondo (J).wav" WAVE
  TRACK 21 AUDIO
    INDEX 01 00:00:00
FILE "22 Akumajou Dracula X - Chi no Rondo (J).iso" BINARY
  TRACK 22 MODE1/2048
    PREGAP 00:03:00
    INDEX 01 00:00:00

I navigate to the file in Temper, but when I press Y nothing happens. The game does not run. I have syscard3.pce in the Temper/syscards directory.

Why won't the game run? Thanks.

Gab1975

  • Posts: 1165
Re: I NEED TEMPER or another working PcEngine emulator
« Reply #73 on: April 12, 2014, 05:29:39 am »
If I remember well the CD-ROM bios should be in .bin format... syscard.bin, syscard2.bin and syscard3.bin...

Prophet

  • Posts: 200
Re: I NEED TEMPER or another working PcEngine emulator
« Reply #74 on: April 12, 2014, 06:10:17 am »
If I remember well the CD-ROM bios should be in .bin format... syscard.bin, syscard2.bin and syscard3.bin...

Thanks!

That was it. =)

Timepilot2084

  • Posts: 35
    • Facebook Page
Re: I NEED TEMPER or another working PcEngine emulator
« Reply #75 on: May 11, 2014, 12:50:28 pm »
Someone was nice enough to post it to ISOZone.  Be sure to read the description, as it is a Dingoo release.  There's some key mapping issues, but it works great once you get it mapped correctly.  After unzipping, place the folder somewhere on your Zero.  Then, navigate to the "emulators" page and press SELECT.  Highlight "Add link in emulators," and find your Temper folder.  Just select the "temper.dge" file, and you should be good to go.  It even adds the correct icon automatically.  By-the-way, HuCards must be in an unzipped state to be recognized by the emulator. 

Link removed
« Last Edit: August 01, 2014, 11:23:40 am by Harteex »
Timepilot2084
timepilot2084 AT gmail.com
@rob_conder

EXPotemkin

  • Posts: 3
Re: I NEED TEMPER or another working PcEngine emulator
« Reply #76 on: July 31, 2014, 08:49:10 am »
I've loaded Temper onto the internal memory the way Timepilot2084 describes but I get a black screen for a few seconds and then get booted back to the GCW main menu. How can I fix that?

EXPotemkin

  • Posts: 3
Re: I NEED TEMPER or another working PcEngine emulator
« Reply #77 on: July 31, 2014, 09:02:05 am »
Sorry for the double post but I figured it out. I put it in my own folder I made and for some reason it didn't transfer the file right or something. Really odd.

Surkow

  • * Administrator
  • Posts: 692
Re: I NEED TEMPER or another working PcEngine emulator
« Reply #78 on: July 31, 2014, 12:12:32 pm »
Sorry for the double post but I figured it out. I put it in my own folder I made and for some reason it didn't transfer the file right or something. Really odd.
Did you use Filezilla in binary mode (if you used FTP)?.

EXPotemkin

  • Posts: 3
Re: I NEED TEMPER or another working PcEngine emulator
« Reply #79 on: July 31, 2014, 12:53:30 pm »
Sorry for the double post but I figured it out. I put it in my own folder I made and for some reason it didn't transfer the file right or something. Really odd.
Did you use Filezilla in binary mode (if you used FTP)?.

I didn't put it in the apps section. That's why it didn't work. I got it working now =)