Author Topic: Picodrive OD with optimizations  (Read 24899 times)

HercTNT

  • *
  • Posts: 254
Re: Picodrive OD with optimizations
« Reply #60 on: November 06, 2013, 07:07:43 am »
sol-feace works for me, this is what my cue file looks like:

FILE "SOL-FEACE (U).BIN" BINARY
  TRACK 01 MODE1/2352
    INDEX 01 00:00:00
  TRACK 02 AUDIO
    PREGAP 00:02:00
    INDEX 01 00:35:64
  TRACK 03 AUDIO
    INDEX 01 00:47:16
  TRACK 04 AUDIO
    INDEX 00 01:02:00
    INDEX 01 01:03:43
  TRACK 05 AUDIO
    INDEX 01 01:20:03
  TRACK 06 AUDIO
    INDEX 00 04:00:00
    INDEX 01 04:01:44
  TRACK 07 AUDIO
    INDEX 00 06:57:00
    INDEX 01 06:58:65
  TRACK 08 AUDIO
    INDEX 00 08:59:00
    INDEX 01 09:00:60
  TRACK 09 AUDIO
    INDEX 01 14:43:57
  TRACK 10 AUDIO
    INDEX 01 17:22:22
  TRACK 11 AUDIO
    INDEX 01 21:55:51
  TRACK 12 AUDIO
    INDEX 01 23:47:26
  TRACK 13 AUDIO
    INDEX 01 26:55:26
  TRACK 14 AUDIO
    INDEX 01 32:22:28
  TRACK 15 AUDIO
    INDEX 01 34:56:67
  TRACK 16 AUDIO
    INDEX 01 37:49:11
  TRACK 17 AUDIO
    INDEX 01 41:31:26
  TRACK 18 AUDIO
    INDEX 01 43:08:42

cfarl

Re: Picodrive OD with optimizations
« Reply #61 on: November 06, 2013, 06:54:57 pm »
If the CUE says...
Quote
FILE "asdkl˝.iso" BINARY
  TRACK 01 MODE1/2048
      INDEX 01 00:00:00
      POSTGAP 00:02:00
FILE "asdkl˝02.mp3" MP3
  TRACK 02 AUDIO
    PREGAP 00:02:00
    INDEX 01 00:00:00
...then the name of the ISO must be "asdkl˝.iso" and the first track name must be "asdkl˝02.mp3", I hope you understands me, my English skills are crappy.

Renamed files, editted the cue:

FILE "Sol-Feace.iso" BINARY
  TRACK 01 MODE1/2048
      INDEX 01 00:00:00
      POSTGAP 00:02:00
FILE "Sol-Feace02.mp3" MP3
  TRACK 02 AUDIO
    PREGAP 00:02:00
    INDEX 01 00:00:00
FILE "Sol-Feace03.mp3" MP3
  TRACK 03 AUDIO

....

But still no music in game.... :(

HercTNT, I think you have a .bin file, because of your cue. It is a copy of the original cd:

FILE "SOL-FEACE (U).BIN" BINARY
  TRACK 01 MODE1/2352
    INDEX 01 00:00:00
  TRACK 02 AUDIO
    PREGAP 00:02:00

I have a different set, a .iso for track 1 and a lot of mp3 files...


HercTNT

  • *
  • Posts: 254
Re: Picodrive OD with optimizations
« Reply #62 on: November 06, 2013, 10:15:07 pm »
I have no idea if that can be converted or not. your gonna have to search for a differnt file set if you can't get yours to work. Not sure what else to do. Good luck.

cfarl

Re: Picodrive OD with optimizations
« Reply #63 on: November 07, 2013, 07:32:25 pm »
Some more tests:

I used a .iso file and .wav for music, and SoulFeace runs with music. The .cue is as follow:

CATALOG 0000000000000
FILE "Sol-Feace (1992)(Sega)(NTSC)(US)(Track 01 of 18)[!].iso" BINARY
  TRACK 01 MODE1/2048
    INDEX 01 00:00:00
FILE "Sol-Feace (1992)(Sega)(NTSC)(US)(Track 02 of 18)[!].wav" WAVE
  TRACK 02 AUDIO
    PREGAP 00:02:00
    INDEX 01 00:00:00
...

I tested also a .bin file of Caddilacs and Dinossaurs. The music works, but is failing, it would be better without sound. The .cue is the following:

FILE "Cadillacs.BIN" BINARY
  TRACK 01 MODE1/2352
    INDEX 01 00:00:00
  TRACK 02 AUDIO
    PREGAP 00:02:00
    INDEX 01 61:37:20
   
So, I got music using .wav files. And also got music using .bin file. But cannot make it work using .mp3 files.

And after doing a lot of tests I give up...

I beg if someone else got sound using .mp3 files, please post here the content of your .cue file.

Thanks!


joyeux

  • *
  • Posts: 19
Re: Picodrive OD with optimizations
« Reply #64 on: January 08, 2014, 06:54:42 pm »
I can't see this release anymore in Notaz website http://notaz.gp2x.de/pico.php

I am almost sure it was there once.

Why would it be removed?
"Life is a dream, and it's morning for you."

- Wan Fu

 

Post a new topic